Defective 2018 Movies 720p HDRip x264 5.1 with Sample ☻rDX☻

  • Category Movies
  • Type HD
  • Language English
  • Total size 958.8 MB
  • Uploaded By nehalpuja
  • Downloads 347
  • Last checked 3 days ago
  • Date uploaded 5 days ago
  • Seeders 38
  • Leechers 25

Infohash : CE15776168EA1A12CE25B1E6CF73326D56D18015

Defective 2018 Movies 720p HDRip x264 5.1 with Sample ☻rDX☻
===============================================================================================

SCREEN SHOTS:



or

http://postimage.co.nr/2018/2/credit/1.html

File size : 950 MiB
Duration : 1 h 42 min
Overall bit rate : 1 302 kb/s
Movie name : Defective 2018 Movies 720p HDRip x264 5.1 ☻rDX☻

Video
ID : 2
Format : AVC
Format/Info : Advanced Video Codec
Format profile : [email protected]
Format settings, CABAC : Yes
Format settings, ReFrames : 4 frames
Codec ID : V_MPEG4/ISO/AVC
Duration : 1 h 42 min
Bit rate : 916 kb/s
Width : 1 280 pixels
Height : 688 pixels
Display aspect ratio : 1.85:1
Frame rate mode : Constant
Frame rate : 23.976 (24000/1001) FPS
Color space : YUV
Chroma subsampling : 4:2:0
Bit depth : 8 bits
Scan type : Progressive
Bits/(Pixel*Frame) : 0.043
Stream size : 651 MiB (69%)
Title : ☻rDX☻
Writing library : x264

Audio
ID : 1
Format : AC-3
Format/Info : Audio Coding 3
Mode extension : CM (complete main)
Format settings, Endianness : Big
Codec ID : A_AC3
Duration : 1 h 42 min
Bit rate mode : Constant
Bit rate : 384 kb/s
Channel(s) : 6 channels
Channel positions : Front: L C R, Side: L R, LFE
Sampling rate : 48.0 kHz
Frame rate : 31.250 FPS (1536 spf)
Bit depth : 16 bits
Compression mode : Lossy
Delay relative to video : -21 ms
Stream size : 280 MiB (30%)
Title : ☻rDX☻
Default : Yes
Forced : No



IMDB : http://www.imdb.com/title/tt4526372

Files:

Defective 2018 Movies 720p HDRip x264 5.1 with Sample ☻rDX☻
  • Sample ~ Defective 2018 Movies 720p HDRip x264 5.1 ☻rDX☻.mkv (9.1 MB)
  • Defective 2018 Movies 720p HDRip x264 5.1 ☻rDX☻.mkv (949.6 MB)

There are currently no comments. Feel free to leave one :)

Code:

  • udp://tracker.coppersurfer.tk:6969/announce
  • udp://tracker.openbittorrent.com:80/announce
  • udp://glotorrents.pw:6969/announce
  • udp://tracker.publicbt.com:80/announce
  • http://retracker.krs-ix.ru/announce
  • udp://tracker.pomf.se:80/announce
  • udp://explodie.org:6969/announce
  • http://mgtracker.org:2710/announce
  • http://tracker.aletorrenty.pl:2710/announce
  • http://tracker.btcake.com/announce
  • udp://tracker.openbittorrent.com:80/announce
  • udp://tracker.leechers-paradise.org:6969/announce
  • udp://coppersurfer.tk:6969/announce